收藏篮
0
0 G


联系我们
旺旺: artstar74

微信联系

art_star



选片帮助 收藏本站
您好!请 登录注册 成为会员


怪奇宅 採魂邨(港) 怪奇大厦(台) 国语中字 6.8
影片海报
收藏
大小: 8.57 G 清晰度: 1080P 人气: 0
视频: AVC, 25.000fps, 16:9
音频:
英语, 2.0声道, AAC, 48.0KHz
字幕:
中文
标签:
HDTV
又名:
怪奇宅 採魂邨(港) 怪奇大厦(台) 国语中字
类型:
惊悚/恐怖
国家:
韩国
剧情介绍

◎译  名 怪奇宅 / 採魂邨(港) / 怪奇大厦(台) / 怪奇公寓 / Strange Mansion / Ghost Mansion / The Grotesque Mansion
◎片  名 ????
◎年  代 2021
◎产  地 韩国
◎类  别 惊悚 / 恐怖
◎语  言 韩语
◎上映日期 2021-06-30(韩国) / 2021-07-30(韩国网络)
◎IMDb链接??https://www.imdb.com/title/tt14895216/
◎豆瓣评星 ★★★?☆
◎豆瓣评分 6.8/10 from 33,475 users
◎豆瓣链接 https://movie.douban.com/subject/35477218/
◎片  长 106分钟
◎导  演 赵巴伦 / Jo Bareun
◎演  员 盛骏 / Jun Sung
      金弘波 / Hong-Fa Kim
      金宝罗 / Bora Kim
      金在华 / Jae-hwa Kim
      朴素珍 / So-jin Park
      徐现宇 / Seo Hyeon-woo
      沈昭英 / So-yeong Sim

◎简  介 

  电影讲述网络漫画作家智友(盛骏 饰)探访废弃公寓光林Mansion时发生的怪异而恐怖的现实向故事。《怪奇宅》由5个怪谈故事组成,以《楼层噪音》《霉菌》《电梯》等现代人都能体验到的日常素材为基础,给人以有密度的恐惧感。这也是盛骏退伍后的首部公开作品。
  《怪奇宅》首先院线上映,其后自7月30日开始将通过Olleh TV、Seezn和Skylife平台依次公开。

Quote:

General
Complete name                            : F:\Ghost Mansion 2021.mp4
Format                                   : MPEG-4
Format profile                           : Base Media / Version 2
Codec ID                                 : mp42 (mp42/isom)
File size                                : 8.57 GiB
Duration                                 : 2 h 20 min
Overall bit rate mode                    : Variable
Overall bit rate                         : 8 744 kb/s

Video
ID                                       : 1
Format                                   : AVC
Format/Info                              : Advanced Video Codec
Format profile                           : Baseline@L4
Format settings                          : 1 Ref Frames
Format settings, CABAC                   : No
Format settings, Reference frames        : 1 frame
Format settings, GOP                     : M=1, N=50
Codec ID                                 : avc1
Codec ID/Info                            : Advanced Video Coding
Duration                                 : 2 h 20 min
Bit rate                                 : 8 549 kb/s
Width                                    : 1 920 pixels
Height                                   : 1 080 pixels
Display aspect ratio                     : 16:9
Frame rate mode                          : Constant
Frame rate                               : 25.000 FPS
Color space                              : YUV
Chroma subsampling                       : 4:2:0
Bit depth                                : 8 bits
Scan type                                : Progressive
Bits/(Pixel*Frame)                       : 0.165
Stream size                              : 8.38 GiB (98%)
Language                                 : English
Codec configuration box                  : avcC

Audio
ID                                       : 2
Format                                   : AAC LC
Format/Info                              : Advanced Audio Codec Low Complexity
Codec ID                                 : mp4a-40-2
Duration                                 : 2 h 20 min
Bit rate mode                            : Variable
Bit rate                                 : 192 kb/s
Channel(s)                               : 2 channels
Channel layout                           : L R
Sampling rate                            : 48.0 kHz
Frame rate                               : 46.875 FPS (1024 SPF)
Compression mode                         : Lossy
Stream size                              : 190 MiB (2%)
Language                                 : English


 

影片海报
  
?
老艺影音 ? 2012 版权所有  站点地图
Processed in 0.014 second(s)