收藏篮
0
0 G


联系我们
旺旺: artstar74

微信联系

art_star



选片帮助 收藏本站
您好!请 登录注册 成为会员


斯琴格日勒专场演唱会「UHDTV纯享版」]
影片海报
收藏
大小: 21.24 G 清晰度: 2160P 人气: 0
视频:
音频:
字幕:
中文
标签:
4K
又名:
高清广州·唱响白云 斯琴格日勒专场演唱会「UHDTV纯享版」]
类型:
演唱会
国家:
中国
剧情介绍


Quote:

视频音频编码:
General
ID                             : 2354 (0x932)
Complete name                  : D:\发布\Secen.Gerel.4K.Music.Live.in.House.Guangzhou.Baiyun.20210508.2160p.UHDTV.HLG.HEVC-NGB.ts
Format                         : MPEG-TS
File size                      : 21.2 GiB
Duration                       : 1 h 41 min
Overall bit rate mode          : Variable
Overall bit rate               : 30.0 Mb/s

Video
ID                             : 339 (0x153)
Menu ID                        : 21 (0x15)
Format                         : HEVC
Format/Info                    : High Efficiency Video Coding
Format profile                 : Main 10@L5.1@Main
Codec ID                       : 36
Duration                       : 1 h 41 min
Bit rate                       : 28.2 Mb/s
Width                          : 3 840 pixels
Height                         : 2 160 pixels
Display aspect ratio           : 16:9
Frame rate                     : 50.000 FPS
Color space                    : YUV
Chroma subsampling             : 4:2:0
Bit depth                      : 10 bits
Bits/(Pixel*Frame)             : 0.068
Stream size                    : 20.0 GiB (94%)
Color range                    : Limited
Color primaries                : BT.2020
Transfer characteristics       : HLG
Matrix coefficients            : BT.2020 non-constant

Audio
ID                             : 340 (0x154)
Menu ID                        : 21 (0x15)
Format                         : MPEG Audio
Format version                 : Version 1
Format profile                 : Layer 2
Codec ID                       : 3
Duration                       : 1 h 41 min
Bit rate mode                  : Constant
Bit rate                       : 256 kb/s
Channel(s)                     : 2 channels
Sampling rate                  : 48.0 kHz
Frame rate                     : 41.667 FPS (1152 SPF)
Compression mode               : Lossy
Delay relative to video        : -228 ms
Stream size                    : 186 MiB (1%)

影片海报
  
?
老艺影音 ? 2012 版权所有  站点地图
Processed in 0.013 second(s)