收藏篮
0
0 G


联系我们
旺旺: artstar74

微信联系

art_star



选片帮助 收藏本站
您好!请 登录注册 成为会员


越狱 全五季 美版原盘套装 10Bit HEVC x265 内封中文字幕 9.2
影片海报
收藏
大小: 131.37 G 清晰度: 1080I 人气: 10
视频: V_MPEGH/ISO/HEVC, 23.976fps, 16:9
音频:
英语, 5.1声道, AAC, 48.0KHz
字幕:
英语/丹麦语/挪威布克莫尔语/法语/瑞典语/芬兰语/荷兰语
标签:
蓝光RIP
又名:
越狱 全五季 美版原盘套装 10Bit HEVC x265 内封中文字幕
类型:
剧情/动作/惊悚/犯罪
国家:
美国
剧情介绍

◎译  名 越狱 第一季 / 越狱第一季:破茧狂龙
◎片  名 Prison Break Season 1
◎年  代 2005
◎产  地 美国
◎类  别 剧情 / 动作 / 惊悚 / 犯罪
◎语  言 英语 / 西班牙语
◎上映日期 2005-09-01(美国)
◎IMDb评分 8.4/10 from 406393 users
◎IMDb链接 http://www.imdb.com/title/tt0455275
◎豆瓣评分 9.2/10 from 130534 users
◎豆瓣链接 https://movie.douban.com/subject/1419297/
◎集  数 22
◎片  长 42分钟
◎导  演 Brett Ratner
◎编  剧 Paul Scheuring
◎主  演 文特沃斯·米勒 Wentworth Miller
      多米尼克·珀塞尔 Dominic Purcell
      彼得·斯特曼 Peter Stormare
      阿莫里·诺拉斯科 Amaury Nolasco
      罗宾·汤尼 Robin Tunney
      马歇尔·奥尔曼 Marshall Allman
      韦德·威廉姆斯 Wade Williams
      迈克尔·拉帕波特 Michael Rapaport
      罗伯特·克耐普 Robert Knepper
      莎拉·韦恩·卡丽丝 Sarah Wayne Callies
      乔迪·琳·欧基菲 Jodi Lyn O‘Keefe


◎标  签 美剧 | 越狱 | 悬疑 | 美国 | 电视剧 | 剧情 | Prison | Break

◎简  介 

  麦克(文特沃斯?米勒 Wentworth Miller 饰)和哥哥林肯(多米尼克?珀塞尔 Dominic Purcell 饰)自从母亲去世、父亲失踪后就相依为命。林肯虽然是个街头混混,但他为了弟弟能顺利完成学业,出人头地,瞒着他向高利贷借了9万美金,骗迈克说那是母亲的保 险。迈克凭着这笔钱顺利成为了一名建筑结构工程师,并踏入了上流社会。而林肯为了还高利贷,无奈之下答应了一名陌生男子的要求,去枪杀一个人。当林肯按照计划来到停车场时,发现他的目标已经中枪死亡了,慌乱之下林肯跑回了家。警察很快就在林肯家里捉住了他,无辜的林肯这时才发现一切证据都指向自己。麦克终于在好友那里得知了哥哥为自己所做的一切,他十分后悔当时自己对哥哥的傲慢,经过调查,麦克相信哥哥是被人陷害的,而陷害他的可能牵涉到幕后的政府高官!眼看各种办法都无法帮哥哥洗脱罪名,麦克记起自己以前曾经接过关押林肯的狐狸河监狱的改造工程,他有那里的整套图纸,于是,麦克通过一年时间的精心准备后,故意犯案进入了狐狸河监狱,他要凭借自己的力量将被判了死刑的林肯顺利救走……

Quote:

General
Unique ID                                : 233926280002259085753528283719505429602 (0xAFFC900FF607BD18A23E91366D024462)
Complete name                            : /torrents1/downloads/Prison Break (2005) Season 1-5 S01-S05 (1080p BluRay x265 HEVC 10bit AAC 5.1 Silence)/Season 1/Prison Break (2005) - S01E01 - Pilot (1080p BluRay x265 Silence).mkv
Format                                   : Matroska
Format version                           : Version 4
File size                                : 1.49 GiB
Duration                                 : 43 min 41 s
Overall bit rate                         : 4 873 kb/s
Encoded date                             : UTC 2019-07-03 16:21:47
Writing application                      : mkvmerge v18.0.0 (‘Apricity‘) 64-bit
Writing library                          : libebml v1.3.5 + libmatroska v1.4.8
Writing frontend                         : StaxRip v1.7.0.6

Video
ID                                       : 1
Format                                   : HEVC
Format/Info                              : High Efficiency Video Coding
Format profile                           : Main 10@L4@Main
Codec ID                                 : V_MPEGH/ISO/HEVC
Duration                                 : 43 min 41 s
Bit rate                                 : 4 174 kb/s
Width                                    : 1 920 pixels
Height                                   : 1 080 pixels
Display aspect ratio                     : 16:9
Frame rate mode                          : Constant
Frame rate                               : 23.976 (24000/1001) FPS
Color space                              : YUV
Chroma subsampling                       : 4:2:0
Bit depth                                : 10 bits
Bits/(Pixel*Frame)                       : 0.084
Stream size                              : 1.27 GiB (86%)
Writing library                          : x265 3.0+2-ge71f790de+23:[Windows][GCC 8.2.1][64 bit] Yuuki 10bit
Encoding settings                        : rc=crf / crf=23.0000 / qcomp=0.60 / qpstep=4 / stats-write=0 / stats-read=0 / no-lossless / no-cu-lossless / aq-mode=3 / aq-strength=1.00 / cbqpoffs=0 / crqpoffs=0 / ipratio=1.40 / pbratio=1.30 / psy-rd=2.00 / psy-rdoq=1.00 / deblock=-3:-3 / ref=5 / limit-refs=3 / limit-modes / bframes=8 / b-adapt=2 / bframe-bias=0 / b-pyramid / b-intra / weightp / weightb / min-keyint=23 / max-keyint=250 / rc-lookahead=80 / gop-lookahead=0 / scenecut=40 / radl=0 / max-cu-size=64 / min-cu-size=8 / me=3 / subme=5 / merange=57 / rdoq-level=2 / rd=4 / rdpenalty=0 / dynamic-rd=0.00 / no-rd-refine / ----- / cutree / no-sao / no-rect / no-amp / open-gop / wpp / no-pmode / no-pme / no-psnr / no-ssim / nr-intra=0 / nr-inter=0 / no-constrained-intra / no-strong-intra-smoothing / max-tu-size=32 / tu-inter-depth=1 / tu-intra-depth=1 / limit-tu=0 / qg-size=32 / qpmax=69 / qpmin=0 / ----- / cpuid=1111039 / frame-threads=4 / numa-pools=16 / log-level=2 / input-csp=1 / input-res=1920x1080 / interlace=0 / level-idc=0 / high-tier=1 / uhd-bd=0 / no-allow-non-conformance / no-repeat-headers / no-aud / no-hrd / info / hash=0 / no-temporal-layers / lookahead-slices=4 / no-splice / no-intra-refresh / no-ssim-rd / signhide / no-tskip / max-merge=3 / temporal-mvp / no-analyze-src-pics / no-sao-non-deblock / no-early-skip / rskip / no-fast-intra / no-tskip-fast / no-splitrd-skip / zone-count=0 / no-strict-cbr / no-rc-grain / no-const-vbv / sar=0 / overscan=0 / videoformat=5 / range=0 / colorprim=2 / transfer=2 / colormatrix=2 / chromaloc=0 / display-window=0 / max-cll=0,0 / min-luma=0 / max-luma=1023 / log2-max-poc-lsb=8 / vui-timing-info / vui-hrd-info / slices=1 / no-opt-qp-pps / no-opt-ref-list-length-pps / no-multi-pass-opt-rps / scenecut-bias=0.05 / no-opt-cu-delta-qp / no-aq-motion / no-hdr / no-hdr-opt / no-dhdr10-opt / no-idr-recovery-sei / analysis-reuse-level=5 / scale-factor=0 / refine-intra=0 / refine-inter=0 / refine-mv=0 / refine-ctu-distortion=0 / no-limit-sao / ctu-info=0 / no-lowpass-dct / refine-analysis-type=0 / copy-pic=1 / max-ausize-factor=1.0 / no-dynamic-refine / no-single-sei / no-hevc-aq / qp-adaptation-range=1.00
Default                                  : Yes
Forced                                   : No

Audio #1
ID                                       : 2
Format                                   : AAC LC
Format/Info                              : Advanced Audio Codec Low Complexity
Codec ID                                 : A_AAC-2
Duration                                 : 43 min 41 s
Bit rate                                 : 470 kb/s
Channel(s)                               : 6 channels
Channel layout                           : C L R Ls Rs LFE
Sampling rate                            : 48.0 kHz
Frame rate                               : 46.875 FPS (1024 SPF)
Compression mode                         : Lossy
Delay relative to video                  : 20 ms
Stream size                              : 147 MiB (10%)
Language                                 : English
Default                                  : Yes
Forced                                   : No

Audio #2
ID                                       : 3
Format                                   : AAC LC SBR
Format/Info                              : Advanced Audio Codec Low Complexity with Spectral Band Replication
Commercial name                          : HE-AAC
Format settings                          : Explicit
Codec ID                                 : A_AAC-2
Duration                                 : 43 min 41 s
Bit rate                                 : 80.0 kb/s
Channel(s)                               : 2 channels
Channel layout                           : L R
Sampling rate                            : 48.0 kHz
Frame rate                               : 23.438 FPS (2048 SPF)
Compression mode                         : Lossy
Delay relative to video                  : 40 ms
Stream size                              : 25.0 MiB (2%)
Title                                    : Commentary - Paul Scheuring (Creator) and Dominic Purcell
Language                                 : English
Default                                  : No
Forced                                   : No

Audio #3
ID                                       : 4
Format                                   : AAC LC SBR
Format/Info                              : Advanced Audio Codec Low Complexity with Spectral Band Replication
Commercial name                          : HE-AAC
Format settings                          : Explicit
Codec ID                                 : A_AAC-2
Duration                                 : 43 min 41 s
Bit rate                                 : 80.0 kb/s
Channel(s)                               : 2 channels
Channel layout                           : L R
Sampling rate                            : 48.0 kHz
Frame rate                               : 23.438 FPS (2048 SPF)
Compression mode                         : Lossy
Delay relative to video                  : 40 ms
Stream size                              : 25.0 MiB (2%)
Title                                    : Director and Editor Commentary
Language                                 : English
Default                                  : No
Forced                                   : No

Text #1
ID                                       : 5
Format                                   : PGS
Muxing mode                              : zlib
Codec ID                                 : S_HDMV/PGS
Codec ID/Info                            : Picture based subtitle format used on BDs/HD-DVDs
Duration                                 : 42 min 19 s
Bit rate                                 : 47.0 kb/s
Count of elements                        : 1204
Stream size                              : 14.2 MiB (1%)
Language                                 : English
Default                                  : No
Forced                                   : No

Text #2
ID                                       : 6
Format                                   : PGS
Muxing mode                              : zlib
Codec ID                                 : S_HDMV/PGS
Codec ID/Info                            : Picture based subtitle format used on BDs/HD-DVDs
Duration                                 : 41 min 54 s
Bit rate                                 : 44.5 kb/s
Count of elements                        : 1204
Stream size                              : 13.3 MiB (1%)
Language                                 : Spanish
Default                                  : No
Forced                                   : No

Text #3
ID                                       : 7
Format                                   : PGS
Muxing mode                              : zlib
Codec ID                                 : S_HDMV/PGS
Codec ID/Info                            : Picture based subtitle format used on BDs/HD-DVDs
Duration                                 : 41 min 54 s
Bit rate                                 : 45.7 kb/s
Count of elements                        : 1204
Stream size                              : 13.7 MiB (1%)
Language                                 : French
Default                                  : No
Forced                                   : No

Text #4
ID                                       : 8
Format                                   : PGS
Muxing mode                              : zlib
Codec ID                                 : S_HDMV/PGS
Codec ID/Info                            : Picture based subtitle format used on BDs/HD-DVDs
Duration                                 : 41 min 54 s
Bit rate                                 : 26.2 kb/s
Count of elements                        : 1076
Stream size                              : 7.86 MiB (1%)
Language                                 : Japanese
Default                                  : No
Forced                                   : No

Text #5
ID                                       : 9
Format                                   : PGS
Muxing mode                              : zlib
Codec ID                                 : S_HDMV/PGS
Codec ID/Info                            : Picture based subtitle format used on BDs/HD-DVDs
Duration                                 : 41 min 55 s
Bit rate                                 : 34.2 kb/s
Count of elements                        : 921
Stream size                              : 10.3 MiB (1%)
Language                                 : Chinese
Default                                  : No
Forced                                   : No

 

 

影片海报
  
?
老艺影音 ? 2012 版权所有  站点地图
Processed in 0.026 second(s)